<?xml version="1.0" encoding="UTF-8" standalone="no"?>
<!DOCTYPE svg PUBLIC "-//W3C//DTD SVG 1.1//EN" "http://www.w3.org/Graphics/SVG/1.1/DTD/svg11.dtd">
<svg xmlns="http://www.w3.org/2000/svg">
<metadata>
This is a custom SVG webfont generated by Fontspring.
</metadata>
<defs>
<font id="webfontYkbWDHlk" horiz-adv-x="447">
<font-face units-per-em="1000" ascent="825" descent="-175"/>
<missing-glyph horiz-adv-x="187"/>
<glyph unicode=" " horiz-adv-x="187"/>
<glyph unicode="	" horiz-adv-x="187"/>
<glyph unicode=" " horiz-adv-x="187"/>
<glyph unicode="!" horiz-adv-x="193" d="M77 160l-21 302v198h81v-198l-21 -302h-39zM53 0v93h87v-93h-87z"/>
<glyph unicode="&quot;" horiz-adv-x="283" d="M174 427l-11 240h78l-11 -240h-56zM53 427l-11 240h79l-12 -240h-56z"/>
<glyph unicode="#" d="M70 0l32 208h-65l7 50h65l24 150h-65l7 50h64l30 195h59l-31 -195h92l30 195h59l-31 -195h63l-7 -50h-62l-24 -150h63l-7 -50h-64l-31 -208h-61l33 208h-91l-32 -208h-57zM168 258h91l22 150h-91z"/>
<glyph unicode="$" d="M23 193v13h80q-1 -8 -1 -20q0 -63 23.5 -94.5t75.5 -38.5v250l-24 9q-79 29 -110 67t-31 105q0 77 44 125t121 54v84h43v-84q160 -16 161 -185h-76q-1 109 -85 122v-231l46 -16q71 -24 101 -66q31 -43 31 -110q0 -83 -46 -131t-132 -55v-84h-43v84q-178 15 -178 202z M197 386l4 -1v216q-94 -13 -94 -105q0 -88 90 -110zM244 53q52 6 76.5 34.5t24.5 83.5q0 48 -19.5 71t-76.5 44l-5 1v-234z"/>
<glyph unicode="%" horiz-adv-x="713" d="M152 246q-68 0 -98 64q-21 44 -21 150q0 117 26 160q31 54 93 54q67 0 97 -64q21 -45 21 -152q0 -113 -26 -158q-31 -54 -92 -54zM151 0l359 660h51l-358 -660h-52zM152 294q33 0 46.5 37t13.5 127q0 99 -13 131q-14 37 -47 37t-46.5 -37.5t-13.5 -128.5t13.5 -128.5 t46.5 -37.5zM464 54q-21 44 -21 151q0 115 26 160q31 54 93 54q67 0 97 -64q21 -45 21 -153q0 -111 -26 -158q-31 -54 -92 -54q-68 0 -98 64zM515 76q14 -37 47 -37t46.5 37.5t13.5 126.5q0 98 -13 130q-16 37 -47 37q-33 0 -46.5 -37t-13.5 -128q0 -97 13 -129z"/>
<glyph unicode="&amp;" horiz-adv-x="537" d="M44 180q0 83 62 142q22 22 66 56q-63 88 -63 151q0 58 38.5 94.5t97.5 36.5q57 0 92.5 -35.5t35.5 -93.5q0 -48 -22.5 -83.5t-84.5 -84.5l127 -182q20 42 22 124h68q-2 -106 -48 -182l86 -123h-81l-47 65q-71 -75 -159 -75q-82 0 -136 54t-54 136zM230 415q41 32 57.5 57 t16.5 56t-17.5 51t-45.5 20q-27 0 -45 -19t-18 -47q0 -24 10.5 -47.5t41.5 -70.5zM116 187q0 -58 36.5 -96.5t90.5 -38.5q65 0 114 65l-149 209q-52 -38 -72 -68t-20 -71z"/>
<glyph unicode="'" horiz-adv-x="163" d="M53 427l-11 240h79l-12 -240h-56z"/>
<glyph unicode="(" horiz-adv-x="274" d="M189 -160q-79 121 -109 212t-30 209q0 109 29.5 205t95.5 201h54q-102 -161 -102 -403q0 -132 26.5 -228.5t88.5 -195.5h-53z"/>
<glyph unicode=")" horiz-adv-x="274" d="M45 -160q102 161 102 403q0 132 -26.5 228.5t-88.5 195.5h53q79 -121 109 -212t30 -209q0 -109 -29.5 -205t-95.5 -201h-54z"/>
<glyph unicode="*" horiz-adv-x="365" d="M122 403l-41 30l66 85l-103 30l16 48l101 -36l-4 107h51l-3 -107l101 36l15 -48l-103 -30l66 -85l-41 -30l-60 89z"/>
<glyph unicode="+" d="M196 147v161h-155v53h155v158h55v-158h155v-53h-155v-161h-55z"/>
<glyph unicode="," horiz-adv-x="192" d="M50 0v97h92v-90q0 -117 -92 -145v49q42 20 41 89h-41z"/>
<glyph unicode="-" horiz-adv-x="187" d="M0 225v70h187v-70h-187z"/>
<glyph unicode="." horiz-adv-x="192" d="M50 0v97h92v-97h-92z"/>
<glyph unicode="/" horiz-adv-x="302" d="M-11 -160l222 827h59l-222 -827h-59z"/>
<glyph unicode="0" d="M73 90q-32 72 -32 237q0 179 40 252q46 85 143 85q105 0 150 -100q32 -70 32 -241q0 -174 -40 -248q-47 -85 -142 -85q-105 0 -151 100zM141 114q27 -62 83 -62q62 0 86 73q19 55 19 199q0 161 -23 216q-26 62 -82 62q-63 0 -87 -73q-19 -55 -19 -202q0 -158 23 -213z "/>
<glyph unicode="1" d="M224 0v483h-138v57q11 -1 27 -1q62 0 91.5 29t30.5 92h66v-660h-77z"/>
<glyph unicode="2" d="M44 0v1v8q0 95 33 152.5t126 131.5q70 56 92 92.5t22 92.5q0 57 -26 88t-74 31q-73 0 -95 -71q-6 -18 -7 -89h-71v23q0 98 46 151t131 53q80 0 126.5 -50.5t46.5 -138.5q0 -68 -28 -114.5t-108 -112.5q-73 -60 -102.5 -98t-35.5 -83h281v-67h-357z"/>
<glyph unicode="3" d="M41 195h74q-1 -7 -1 -16q0 -59 29.5 -93t79.5 -34q51 0 81.5 37t30.5 100q0 70 -40 104q-27 22 -90 22q-18 0 -30 -1v61q9 -1 25 -1q58 0 84.5 27.5t26.5 88.5q0 112 -93 112q-50 0 -71 -30.5t-23 -104.5h-72q3 81 24 121q40 76 145 76q78 0 122.5 -44.5t44.5 -123.5 q0 -111 -97 -148q63 -12 92 -49t29 -107q0 -94 -50.5 -148t-137.5 -54q-89 0 -135.5 52t-47.5 153z"/>
<glyph unicode="4" d="M40 167v67l239 426h75v-426h64v-67h-64v-167h-72v167h-242zM107 234h175v311z"/>
<glyph unicode="5" d="M65 71q-23 38 -24 106h74q2 -125 99 -125q53 0 83 45t30 125q0 73 -29 111.5t-84 38.5q-71 0 -89 -63l-70 7l39 337h287v-67h-225l-24 -189q47 37 102 37q79 0 124.5 -56.5t45.5 -154.5q0 -107 -51 -170t-138 -63q-103 0 -150 81z"/>
<glyph unicode="6" d="M72 95q-31 71 -31 225q0 194 55 272q50 72 139 72q71 0 110.5 -40.5t44.5 -118.5h-71q-4 52 -24 74.5t-60 22.5q-61 0 -90 -60.5t-33 -194.5q53 76 131 76q76 0 121 -56.5t45 -151.5q0 -102 -49.5 -163.5t-131.5 -61.5q-110 0 -156 105zM226 48q48 0 77 42.5t29 113.5 q0 74 -28 117.5t-76 43.5q-50 0 -79 -42.5t-29 -114.5q0 -74 28.5 -117t77.5 -43z"/>
<glyph unicode="7" d="M108 0q26 288 223 586h-292v67h369v-67q-98 -140 -155.5 -296t-60.5 -290h-84z"/>
<glyph unicode="8" d="M43 187q0 130 103 173q-84 38 -84 139q0 76 43.5 120.5t118.5 44.5q74 0 117.5 -44.5t43.5 -121.5q0 -100 -84 -138q103 -43 103 -173q0 -91 -48.5 -144t-131.5 -53q-84 0 -132.5 53t-48.5 144zM224 386q41 0 65.5 29t24.5 78q0 51 -24 80t-67 29q-42 0 -66 -29t-24 -79 t24 -79t67 -29zM120 189q0 -66 27 -101.5t77 -35.5q49 0 76 35t27 99q0 67 -27 103t-77 36q-49 0 -76 -35.5t-27 -100.5z"/>
<glyph unicode="9" d="M55 148h71q4 -51 24 -73.5t59 -22.5q74 0 102 87q19 61 22 168q-29 -42 -58.5 -59t-71.5 -17q-76 0 -121.5 56t-45.5 151q0 103 49.5 164.5t132.5 61.5q110 0 156 -105q30 -67 30 -226q0 -194 -55 -271q-49 -72 -139 -72q-71 0 -110.5 40.5t-44.5 117.5zM217 289 q50 0 79 42.5t29 114.5q0 74 -28.5 117t-77.5 43q-48 0 -77 -42.5t-29 -113.5q0 -74 28 -117.5t76 -43.5z"/>
<glyph unicode=":" horiz-adv-x="192" d="M50 396v97h92v-97h-92zM50 0v97h92v-97h-92z"/>
<glyph unicode=";" horiz-adv-x="192" d="M50 396v97h92v-97h-92zM50 0v97h92v-90q0 -117 -92 -145v49q42 20 41 89h-41z"/>
<glyph unicode="&lt;" horiz-adv-x="500" d="M33 306v62l433 202v-71l-356 -162l356 -163v-71z"/>
<glyph unicode="=" d="M41 390v53h365v-53h-365zM41 224v53h365v-53h-365z"/>
<glyph unicode="&gt;" horiz-adv-x="500" d="M34 103v71l356 163l-356 162v71l433 -203v-62z"/>
<glyph unicode="?" horiz-adv-x="403" d="M159 163q-1 14 -1 28q0 55 14 86.5t64 92.5q35 42 46.5 66.5t11.5 59.5q0 51 -24.5 81t-67.5 30q-63 0 -86 -60q-9 -26 -9 -82h-75q1 85 25 129q45 80 146 80q77 0 122.5 -47.5t45.5 -127.5q0 -47 -16 -80.5t-66 -91.5q-39 -46 -48.5 -66t-9.5 -57q0 -22 1 -41h-73z M152 0v93h87v-93h-87z"/>
<glyph unicode="@" horiz-adv-x="645" d="M125 86q-83 103 -83 246q0 147 84 247t206 100q115 0 193 -85t78 -211q0 -96 -46 -168t-107 -72q-47 0 -62 56q-38 -60 -95 -60q-50 0 -83 46t-33 117q0 85 44 145.5t106 60.5q29 0 48 -14t35 -48l9 50h61l-41 -214q-6 -36 -6 -46q0 -40 21 -40q35 0 63.5 57t28.5 128 q0 105 -60.5 173.5t-152.5 68.5q-98 0 -164.5 -84t-66.5 -207q0 -118 63 -204q61 -83 173 -83q91 0 174 48l17 -56q-91 -49 -191 -49q-135 0 -213 98zM304 200q35 0 59 44t24 108q0 43 -14 67t-40 26h-3q-33 0 -59 -41q-27 -43 -27 -100q0 -47 16.5 -75.5t43.5 -28.5z"/>
<glyph unicode="A" horiz-adv-x="502" d="M5 0l192 667h101l198 -667h-85l-55 191h-218l-52 -191h-81zM157 258h181l-58 206q-16 57 -33 128q-18 -75 -33 -128z"/>
<glyph unicode="B" horiz-adv-x="493" d="M62 0v667h180q99 0 138 -34q53 -45 53 -136q0 -55 -19.5 -88t-62.5 -52q102 -32 102 -163q0 -97 -54 -148q-26 -25 -62.5 -35.5t-98.5 -10.5h-176zM141 379h101q57 0 82 25q30 30 30 88q0 57 -30 87q-25 25 -84 25h-99v-225zM141 63h103q67 0 98.5 31t31.5 97t-31.5 97 t-98.5 31h-103v-256z"/>
<glyph unicode="C" horiz-adv-x="481" d="M253 -12q-109 0 -159.5 85t-50.5 267q0 194 61 270q56 69 153 69q85 0 134 -54.5t54 -153.5h-77q-8 145 -114 145q-68 0 -100 -62.5t-32 -195.5q0 -165 30.5 -236t101.5 -71q118 0 121 191h77q-10 -254 -199 -254z"/>
<glyph unicode="D" horiz-adv-x="513" d="M62 0v667h166q81 0 121 -14.5t67 -54.5q54 -83 54 -261q0 -208 -77 -287q-27 -27 -64 -38.5t-99 -11.5h-168zM141 63h69q63 0 92.5 11t48.5 41q40 67 40 220q0 77 -13 139.5t-34 90.5q-17 22 -42 30.5t-69 8.5h-92v-541z"/>
<glyph unicode="E" horiz-adv-x="468" d="M62 0v667h357v-70h-278v-214h267v-67h-267v-246h288v-70h-367z"/>
<glyph unicode="F" horiz-adv-x="424" d="M52 0v667h351v-70h-272v-227h252v-70h-252v-300h-79z"/>
<glyph unicode="G" horiz-adv-x="507" d="M88 85q-44 78 -44 256q0 184 53 259q56 79 167 79q183 0 191 -210h-78q-5 146 -116 146q-80 0 -113 -80q-25 -57 -25 -198q0 -148 33 -215t105 -67q82 0 111 89q13 42 14 134h-141v67h214v-345h-59q-4 38 -9 62q-30 -41 -61 -57.5t-77 -16.5q-111 0 -165 97z"/>
<glyph unicode="H" horiz-adv-x="519" d="M62 0v667h79v-276h237v276h79v-667h-79v324h-237v-324h-79z"/>
<glyph unicode="I" horiz-adv-x="203" d="M62 0v667h79v-667h-79z"/>
<glyph unicode="J" horiz-adv-x="379" d="M90 110q15 -55 72 -55q44 0 62 31q15 27 15 94v487h79v-467q0 -69 -5.5 -100t-21.5 -55q-18 -26 -53 -41.5t-77 -15.5q-154 0 -154 189q0 21 1 36h75q1 -83 7 -103z"/>
<glyph unicode="K" horiz-adv-x="504" d="M62 0v667h79v-334l243 334h95l-214 -278l227 -389h-92l-185 324l-74 -96v-228h-79z"/>
<glyph unicode="L" horiz-adv-x="434" d="M62 0v667h79v-597h274v-70h-353z"/>
<glyph unicode="M" horiz-adv-x="655" d="M62 0v667h121l112 -415l13 -47l15 -61l8 -37q12 64 32 140l110 420h120v-667h-73v434q0 86 4 148l-6 -22l-9 -38l-24 -88l-122 -434h-68l-126 444q-13 44 -38 138q4 -103 4 -148v-434h-73z"/>
<glyph unicode="N" horiz-adv-x="519" d="M62 0v667h103l174 -438q34 -85 49 -132q-4 76 -4 148v422h73v-667h-100l-184 454q-21 50 -45 121q7 -75 7 -134v-441h-73z"/>
<glyph unicode="O" horiz-adv-x="510" d="M78 98q-35 76 -35 236q0 174 43 251q53 94 169 94q125 0 176 -109q35 -76 35 -240q0 -173 -43 -248q-53 -94 -168 -94q-125 0 -177 110zM255 55q70 0 101 64.5t31 211.5q0 152 -30.5 216.5t-101.5 64.5t-102 -64.5t-31 -213.5t31 -214t102 -65z"/>
<glyph unicode="P" horiz-adv-x="455" d="M62 0v667h173q87 0 127 -33q64 -50 64 -160q0 -94 -46.5 -144t-133.5 -50h-105v-280h-79zM141 347h92q59 0 86.5 30.5t27.5 94.5t-27.5 94.5t-86.5 30.5h-92v-250z"/>
<glyph unicode="Q" horiz-adv-x="510" d="M78 97q-35 78 -35 237q0 174 43 251q53 94 169 94q125 0 176 -109q35 -75 35 -237q0 -171 -43 -251l71 -57l-41 -51l-71 57q-53 -43 -128 -43q-125 0 -176 109zM254 55q42 0 72 22l-66 54l41 50l62 -50q24 67 24 201q0 150 -30.5 215t-101.5 65t-102 -65t-31 -214 q0 -148 30.5 -213t101.5 -65z"/>
<glyph unicode="R" horiz-adv-x="500" d="M62 0v667h187q98 0 139 -42q46 -46 46 -131q0 -124 -106 -159q57 -12 80 -45t24 -105l1 -74q1 -43 8 -66.5t26 -44.5h-93q-18 47 -19 111l-1 62q-2 76 -27 102.5t-98 26.5h-88v-302h-79zM141 365h103q111 0 111 120q0 119 -111 119h-103v-239z"/>
<glyph unicode="S" horiz-adv-x="479" d="M33 209h81v-25q0 -133 124 -133q125 0 125 122q0 50 -19.5 74t-78.5 44l-75 26q-79 28 -111 68t-32 109q0 86 51.5 135.5t139.5 49.5q57 0 100 -22.5t64 -62.5q21 -38 22 -106h-78q-2 67 -29 97.5t-83 30.5q-53 0 -83.5 -29t-30.5 -80q0 -44 21 -70t72 -44l93 -33 q78 -28 105 -68q31 -44 31 -113q0 -90 -54 -140.5t-151 -50.5q-104 0 -154 54t-50 167z"/>
<glyph unicode="T" horiz-adv-x="425" d="M174 0v600h-167v67h412v-67h-166v-600h-79z"/>
<glyph unicode="U" horiz-adv-x="508" d="M99 59q-37 51 -37 161v447h79v-454q0 -91 28 -123q29 -35 85 -35t85 35q28 32 28 123v454h79v-447q0 -110 -37 -161q-50 -71 -155 -71t-155 71z"/>
<glyph unicode="V" horiz-adv-x="488" d="M194 0l-187 667h88l117 -444q19 -74 31 -138q12 54 35 138l118 444h86l-191 -667h-97z"/>
<glyph unicode="W" horiz-adv-x="708" d="M152 0l-142 667h81l84 -430q18 -88 24 -157q6 56 26 159l84 428h91l89 -416q16 -80 27 -171q14 124 23 171l78 416h81l-141 -667h-86l-86 395q-18 84 -31 168q-5 -48 -29 -169l-78 -394h-95z"/>
<glyph unicode="X" horiz-adv-x="484" d="M7 0l189 341l-180 326h91l135 -254l134 254h90l-180 -326l192 -341h-94l-142 273l-144 -273h-91z"/>
<glyph unicode="Y" horiz-adv-x="449" d="M181 0v267l-181 400h88l94 -220l26 -63l11 -27l5 -12q13 35 42 102l96 220h87l-189 -400v-267h-79z"/>
<glyph unicode="Z" horiz-adv-x="463" d="M19 0v56l316 541h-283v70h374v-68l-313 -529h321v-70h-415z"/>
<glyph unicode="[" horiz-adv-x="261" d="M132 -107h87v-53h-159v827h159v-53h-87v-721z"/>
<glyph unicode="\" horiz-adv-x="302" d="M254 -160l-222 827h59l222 -827h-59z"/>
<glyph unicode="]" horiz-adv-x="261" d="M42 -107h88v721h-88v53h159v-827h-159v53z"/>
<glyph unicode="^" horiz-adv-x="500" d="M26 366l177 303h95l177 -303h-78l-147 246l-146 -246h-78z"/>
<glyph unicode="_" horiz-adv-x="500" d="M0 -66h500v-66h-500v66z"/>
<glyph unicode="`" horiz-adv-x="500" d="M222 540l-109 127h109l58 -127h-58z"/>
<glyph unicode="a" horiz-adv-x="420" d="M34 127q0 73 49 108q28 21 114 42q59 14 74.5 27.5t15.5 50.5q0 47 -20.5 68t-65.5 21q-66 0 -80 -43q-5 -15 -5 -44h-67q0 75 37.5 110.5t116.5 35.5q75 0 115 -35q35 -32 35 -111v-231q0 -60 8 -69q7 -9 24 -9q5 0 12 1v-49q-21 -3 -30 -3q-67 0 -81 65 q-46 -72 -124 -72q-57 0 -92.5 38t-35.5 99zM107 132q0 -40 19 -61.5t53 -21.5q53 0 83 43q14 19 19 41t5 67v55q-21 -10 -70 -25q-62 -17 -80 -30q-29 -22 -29 -68z"/>
<glyph unicode="b" horiz-adv-x="422" d="M54 0v667h72v-218q46 54 108 54q75 0 114 -65t39 -189q0 -123 -40 -189.5t-115 -66.5q-35 0 -59.5 13.5t-51.5 48.5v-55h-67zM217 52q97 0 97 193q0 103 -23.5 151t-73.5 48q-49 0 -72.5 -47.5t-23.5 -148.5q0 -196 96 -196z"/>
<glyph unicode="c" horiz-adv-x="385" d="M207 -10q-88 0 -130 64.5t-42 198.5q0 127 43 188.5t131 61.5q72 0 111 -42t42 -122h-68q-3 106 -86 106q-54 0 -77 -45t-23 -149q0 -109 23 -155.5t77 -46.5q45 0 66 30.5t22 97.5l70 -1q-1 -90 -42 -138t-117 -48z"/>
<glyph unicode="d" horiz-adv-x="421" d="M191 -7q-76 0 -116 66t-40 192q0 252 156 252q60 0 104 -54v218h72v-667h-67v58q-40 -65 -109 -65zM204 52q49 0 72.5 47t23.5 146q0 104 -23 151.5t-73 47.5t-73 -47.5t-23 -148.5t23 -148.5t73 -47.5z"/>
<glyph unicode="e" horiz-adv-x="395" d="M202 -10q-85 0 -126 64.5t-41 199.5q0 119 37 180q42 69 127 69q76 0 118 -59.5t42 -168.5q0 -18 -1 -32h-251q0 -101 23.5 -147.5t73.5 -46.5q80 0 86 116h66q-3 -83 -43.5 -129t-110.5 -46zM108 298h178q0 146 -87 146q-88 0 -91 -146z"/>
<glyph unicode="f" horiz-adv-x="231" d="M81 0v438h-66v55h66v57q0 65 26.5 91t92.5 26h25v-62h-16q-33 0 -44.5 -12t-11.5 -47v-53h72v-55h-72v-438h-72z"/>
<glyph unicode="g" horiz-adv-x="420" d="M48 -46h69q10 -61 81 -61q56 0 78.5 29t22.5 101v24q-45 -54 -108 -54q-72 0 -110 51q-46 59 -46 200q0 259 153 259q37 0 62.5 -15t48.5 -50v55h67v-446q0 -61 -5.5 -91.5t-21.5 -53.5q-40 -62 -142 -62q-70 0 -105.5 27.5t-43.5 86.5zM131 97q22 -45 73 -45 q23 0 42.5 12.5t29.5 32.5q23 47 23 148q0 108 -23 154q-22 45 -73 45q-23 0 -42.5 -12.5t-29.5 -32.5q-23 -46 -23 -151q0 -104 23 -151z"/>
<glyph unicode="h" horiz-adv-x="418" d="M54 0v667h72v-230q46 63 116 63q59 0 93 -40q17 -20 23 -46t6 -80v-334h-72v319q0 47 -3 65.5t-14 32.5q-18 24 -54 24q-48 0 -74 -37q-21 -29 -21 -99v-305h-72z"/>
<glyph unicode="i" horiz-adv-x="180" d="M54 577v90h72v-90h-72zM54 0v493h72v-493h-72z"/>
<glyph unicode="j" horiz-adv-x="190" d="M64 577v90h72v-90h-72zM64 -10v503h72v-500q0 -91 -25.5 -122t-99.5 -31h-26v60h24q33 0 44 17.5t11 72.5z"/>
<glyph unicode="k" horiz-adv-x="418" d="M54 0v667h72v-402l189 228h85l-163 -188l178 -305h-86l-138 251l-65 -75v-176h-72z"/>
<glyph unicode="l" horiz-adv-x="180" d="M54 0v667h72v-667h-72z"/>
<glyph unicode="m" horiz-adv-x="654" d="M54 0v493h67v-55q30 34 57.5 48t65.5 14q42 0 68 -16t44 -53q29 38 57 53.5t67 15.5q61 0 92 -40q16 -21 22 -47t6 -79v-334h-72v328q0 68 -14 88q-17 25 -55 25q-41 0 -69 -30q-15 -16 -20 -33t-5 -50v-328h-72v328q0 60 -13 83q-17 30 -60 30q-41 0 -68 -27 q-16 -16 -21 -33t-5 -53v-328h-72z"/>
<glyph unicode="n" horiz-adv-x="418" d="M54 0v493h67v-56q48 63 120 63q62 0 94 -40q17 -21 23 -47t6 -79v-334h-72v319q0 47 -3 65.5t-14 32.5q-18 24 -54 24q-48 0 -74 -37q-21 -29 -21 -99v-305h-72z"/>
<glyph unicode="o" horiz-adv-x="407" d="M203 -10q-168 0 -168 257q0 256 168 256t168 -261q0 -123 -43 -187.5t-125 -64.5zM203 49q50 0 72.5 46.5t22.5 148.5q0 106 -22.5 153t-72.5 47t-72.5 -46.5t-22.5 -150.5t22.5 -151t72.5 -47z"/>
<glyph unicode="p" horiz-adv-x="421" d="M126 46v-206h-72v653h67v-52q44 62 110 62q76 0 115 -65t39 -190q0 -124 -40 -189.5t-116 -65.5q-60 0 -103 53zM217 52q95 0 95 193q0 103 -23 151t-73 48q-95 0 -95 -196q0 -101 23.5 -148.5t72.5 -47.5z"/>
<glyph unicode="q" horiz-adv-x="425" d="M191 -7q-76 0 -116 65t-40 188q0 257 158 257q36 0 61.5 -14.5t49.5 -49.5v54h67v-653h-72v206q-46 -53 -108 -53zM206 52q98 0 98 194q0 102 -24 150t-74 48q-98 0 -98 -196t98 -196z"/>
<glyph unicode="r" horiz-adv-x="265" d="M54 0v493h72v-60q26 39 54 53q27 14 69 14h6v-76q-11 2 -26 2q-56 0 -79.5 -31t-23.5 -104v-291h-72z"/>
<glyph unicode="s" horiz-adv-x="368" d="M36 80q-7 29 -7 70h70q-1 -53 20 -77t68 -24q43 0 67 22t24 61q0 35 -17 52q-12 14 -56 29l-58 21q-59 22 -82.5 50.5t-23.5 78.5q0 67 39 103.5t110 36.5q94 0 128 -62q13 -23 17 -80h-70q0 44 -18 63.5t-59 19.5q-80 0 -80 -74q0 -29 13.5 -42.5t57.5 -29.5l65 -23 q54 -19 77.5 -50t23.5 -83q0 -73 -41 -112.5t-117 -39.5q-60 0 -100 24t-51 66z"/>
<glyph unicode="t" horiz-adv-x="237" d="M99 22q-14 15 -19 38.5t-5 76.5v301h-66v55h66v130h72v-130h78v-55h-78v-294q0 -60 13 -73q11 -13 38 -13q12 0 31 2v-60q-20 -2 -44 -2q-62 0 -86 24z"/>
<glyph unicode="u" horiz-adv-x="418" d="M83 33q-17 21 -23 47t-6 79v334h72v-319q0 -47 3 -65.5t14 -32.5q18 -24 54 -24q48 0 74 37q21 29 21 99v305h72v-493h-67v56q-48 -63 -120 -63q-62 0 -94 40z"/>
<glyph unicode="v" horiz-adv-x="366" d="M144 0l-147 493h80l75 -277q18 -65 32 -134q10 53 33 134l80 277h73l-152 -493h-74z"/>
<glyph unicode="w" horiz-adv-x="570" d="M122 0l-122 493h78l59 -271q16 -76 26 -140l3 24l5 37q4 24 14 79l53 271h84l55 -271q12 -61 22 -140q12 64 31 138l66 273h74l-133 -493h-75l-60 280q-12 55 -22 129q-15 -94 -22 -129l-57 -280h-79z"/>
<glyph unicode="x" horiz-adv-x="389" d="M-3 0l155 256l-147 237h85l104 -174l97 174h83l-142 -235l161 -258h-85l-117 197l-110 -197h-84z"/>
<glyph unicode="y" horiz-adv-x="386" d="M33 -94q24 -7 45 -7q56 0 74 78l5 23l-160 493h81l79 -269q15 -51 39 -145q30 123 37 146l79 268h78l-167 -522q-25 -77 -53.5 -104t-84.5 -27q-31 0 -52 6v60z"/>
<glyph unicode="z" horiz-adv-x="333" d="M11 0v58l219 372h-196v63h275v-68l-213 -362h226v-63h-311z"/>
<glyph unicode="{" horiz-adv-x="326" d="M93 -13v146q0 43 -13 64.5t-44 29.5v53q31 9 44 30.5t13 62.5v157q0 74 34 105.5t116 31.5h16v-53h-11q-46 0 -64 -20q-19 -22 -19 -76v-149q0 -47 -12.5 -72.5t-44.5 -42.5q32 -19 44.5 -45t12.5 -74v-143q0 -60 22 -82q17 -17 61 -17h11v-53h-17q-82 0 -115.5 33 t-33.5 114z"/>
<glyph unicode="|" horiz-adv-x="500" d="M214 -167v834h72v-834h-72z"/>
<glyph unicode="}" horiz-adv-x="326" d="M67 -107h11q46 0 64 20q19 22 19 76v149q0 47 12.5 72.5t44.5 43.5q-32 18 -44.5 44t-12.5 74v143q0 60 -22 82q-17 17 -61 17h-11v53h17q82 0 115.5 -33t33.5 -114v-146q0 -43 13 -64.5t44 -29.5v-53q-31 -9 -44 -30.5t-13 -62.5v-157q0 -74 -34 -105.5t-116 -31.5h-16 v53z"/>
<glyph unicode="~" horiz-adv-x="667" d="M136 583l-43 28q32 64 62 89t75 25q37 0 112 -34q68 -32 97 -32q28 0 48 15t43 53l44 -26q-27 -53 -55 -77q-40 -34 -89 -34q-21 0 -47 9t-93 39q-40 18 -66 18q-49 0 -88 -73z"/>
<glyph unicode="¡" horiz-adv-x="193" d="M53 400v93h87v-93h-87zM56 31l21 302h39l21 -302v-198h-81v198z"/>
<glyph unicode="¢" d="M209 -20v104q-77 7 -114 71.5t-37 190.5q0 119 36.5 179.5t114.5 70.5v91h43v-91q63 -6 97.5 -48.5t35.5 -115.5h-68q0 92 -65 105v-393q67 14 68 126l69 -1q1 -82 -34.5 -129.5t-102.5 -55.5v-104h-43zM209 144v392q-42 -9 -60 -53.5t-18 -138.5q0 -99 17.5 -144.5 t60.5 -55.5z"/>
<glyph unicode="£" d="M18 47q55 44 79 83t24 85q0 43 -22 83h-81v42h59q-41 72 -41 135q0 82 52 135.5t132 53.5q116 0 163 -88q22 -41 23 -115h-72q1 5 1 11q0 62 -29.5 96t-83.5 34t-84.5 -34t-30.5 -95q0 -48 55 -133h147v-42h-129q12 -36 12 -65q0 -74 -75 -153q47 13 78 13q30 0 96 -23 q21 -8 36 -8q27 0 73 29l29 -54q-61 -37 -110 -37q-26 0 -80 17q-42 14 -73 14q-55 0 -108 -41z"/>
<glyph unicode="¤" d="M64 134l-33 34l62 64q-32 44 -32 94q0 49 33 95l-65 64l34 33l64 -63q44 33 96 33q51 0 95 -33l64 63l34 -33l-64 -64q33 -46 33 -95t-32 -94l64 -64l-33 -34l-64 64q-44 -33 -96 -33q-50 0 -96 33zM223 218q44 0 76 32t32 76q0 45 -31.5 77t-75.5 32q-46 0 -77.5 -31.5 t-31.5 -77.5q0 -44 32 -76t76 -32z"/>
<glyph unicode="¥" d="M183 0v232h-151v42h142l-42 92h-110v42h91l-111 245h85l93 -220q33 -78 42 -101l42 101l96 220h85l-117 -245h97v-42h-117l-43 -92h150v-42h-160v-232h-72z"/>
<glyph unicode="¦" horiz-adv-x="500" d="M214 334v333h72v-333h-72zM214 153h72v-320h-72v320z"/>
<glyph unicode="§" horiz-adv-x="468" d="M70 -6h72v-9q0 -44 25 -69.5t68 -25.5q40 0 64.5 23.5t24.5 62.5q0 29 -14 46.5t-66 52.5l-91 61q-62 42 -86.5 74.5t-24.5 74.5q0 80 94 134q-63 52 -63 117q0 64 42.5 102.5t112.5 38.5q92 0 130 -63q20 -31 21 -94h-72q-1 97 -81 97q-37 0 -59 -21t-22 -55 q0 -29 15 -47.5t68 -53.5l77 -51q67 -45 89 -68q32 -35 32 -85q0 -80 -95 -140q35 -27 50 -54t15 -63q0 -66 -45.5 -107.5t-117.5 -41.5q-71 0 -117 42.5t-46 107.5v14zM216 180l74 -50q65 46 65 94q0 29 -18.5 51t-72.5 57l-84 55q-66 -40 -66 -92q0 -27 21.5 -51t80.5 -64 z"/>
<glyph unicode="¨" horiz-adv-x="500" d="M295 577v90h71v-90h-71zM135 577v90h72v-90h-72z"/>
<glyph unicode="©" horiz-adv-x="706" d="M42 333q0 145 91.5 245.5t224.5 100.5q125 0 215.5 -102t90.5 -244q0 -143 -91 -244t-219 -101q-129 0 -220.5 101t-91.5 244zM85 333q0 -126 79 -216t190 -90q110 0 188.5 90t78.5 217q0 125 -78 215.5t-186 90.5q-114 0 -193 -89t-79 -218zM353 140q-64 0 -94.5 48.5 t-30.5 152.5q0 98 31 145t96 47q52 0 81.5 -32t31.5 -91h-50q-4 81 -64 81q-74 0 -74 -141q0 -90 17 -129t57 -39q67 0 67 107h52q-7 -149 -120 -149z"/>
<glyph unicode="ª" horiz-adv-x="293" d="M121 413q-32 0 -52 20.5t-20 52.5q0 39 28 58q15 10 62 21q29 7 36 12t7 21q0 39 -40 39q-22 0 -31 -8t-9 -27q0 -5 1 -8h-47v5q0 78 87 78q44 0 64 -19t20 -59v-113q0 -24 1.5 -28.5t9.5 -4.5q6 0 12 2v-36q-20 -2 -21 -2q-32 0 -44 26q-29 -30 -64 -30zM130 453 q26 0 40 19q11 13 11 50v19q-8 -3 -30 -9q-34 -8 -43.5 -16t-9.5 -27q0 -36 32 -36zM43 315v47h207v-47h-207z"/>
<glyph unicode="«" horiz-adv-x="377" d="M195 224v69l135 139v-82l-88 -89l88 -90v-83zM170 88l-135 136v69l135 139v-82l-88 -89l88 -90v-83z"/>
<glyph unicode="¬" horiz-adv-x="500" d="M33 200v67h433v-267h-72v200h-361z"/>
<glyph unicode="­" horiz-adv-x="187" d="M0 225v70h187v-70h-187z"/>
<glyph unicode="®" horiz-adv-x="706" d="M42 333q0 145 91.5 245.5t224.5 100.5q125 0 215.5 -102t90.5 -244q0 -143 -91 -244t-219 -101q-129 0 -220.5 101t-91.5 244zM85 333q0 -126 79 -216t190 -90q110 0 188.5 90t78.5 217q0 125 -78 215.5t-186 90.5q-114 0 -193 -89t-79 -218zM244 147v380h111 q111 0 111 -100q0 -67 -53 -89q28 -8 40 -27t12 -57v-42q0 -26 4.5 -37.5t19.5 -27.5h-64q-12 31 -12 65v35q0 41 -14 55t-55 14h-48v-169h-52zM296 358h56q62 0 62 63q0 64 -62 64h-56v-127z"/>
<glyph unicode="¯" horiz-adv-x="500" d="M108 577v53h283v-53h-283z"/>
<glyph unicode="°" horiz-adv-x="364" d="M182 401q-58 0 -99 40.5t-41 99.5q0 55 41.5 95.5t98.5 40.5q58 0 99 -40.5t41 -97.5t-41 -97.5t-99 -40.5zM182 446q38 0 65.5 27.5t27.5 65.5t-27.5 65.5t-65.5 27.5t-65.5 -27t-27.5 -65q0 -39 27 -66.5t66 -27.5z"/>
<glyph unicode="±" d="M196 167v141h-155v53h155v138h55v-138h155v-53h-155v-141h-55zM41 87v53h365v-53h-365z"/>
<glyph unicode="²" horiz-adv-x="300" d="M35 267q-1 3 -1 7q0 56 21 91.5t80 80.5q43 32 57 53t14 53q0 67 -60 67q-61 0 -61 -78q0 -9 1 -16h-51q-1 8 -1 18q0 58 30 90t85 32q52 0 82 -31t30 -84q0 -40 -18 -68t-69 -68q-44 -33 -62.5 -54.5t-22.5 -46.5h177v-46h-231z"/>
<glyph unicode="³" horiz-adv-x="300" d="M149 262q-59 0 -89 32.5t-29 94.5h53q-1 -84 65 -84q31 0 49 21t18 56q0 37 -19 54t-59 17q-13 0 -23 -1v42q51 0 63 10q23 15 23 55q0 63 -56 63q-30 0 -42 -17.5t-13 -62.5h-52q1 52 15 77q26 46 95 46q50 0 79 -27.5t29 -74.5q0 -32 -11.5 -51t-40.5 -36 q37 -12 52 -33t15 -59q0 -56 -33 -89t-89 -33z"/>
<glyph unicode="´" horiz-adv-x="500" d="M220 540l58 127h109l-109 -127h-58z"/>
<glyph unicode="µ" horiz-adv-x="418" d="M121 50v-210h-67v653h72v-305q0 -75 21 -105q11 -17 28.5 -27.5t33.5 -10.5q37 0 62 38q21 32 21 105v305h72v-493h-67v50q-38 -57 -88 -57t-88 57z"/>
<glyph unicode="¶" d="M201 -160v441h-5q-81 0 -124 50t-43 143q0 110 59 160q39 33 119 33h178v-827h-59v767h-66v-767h-59z"/>
<glyph unicode="·" horiz-adv-x="192" d="M50 212v97h92v-97h-92z"/>
<glyph unicode="¸" horiz-adv-x="500" d="M216 -75l35 75h35l-27 -56q13 4 23 4q27 0 44 -17t17 -45q0 -33 -23 -54.5t-58 -21.5q-36 0 -74 21l10 30q30 -19 56 -19q16 0 26 11t10 28q0 16 -9.5 26.5t-24.5 10.5q-12 0 -27 -7z"/>
<glyph unicode="¹" horiz-adv-x="300" d="M148 267v285h-88v40h17q42 0 59.5 16t18.5 55h48v-396h-55z"/>
<glyph unicode="º" horiz-adv-x="250" d="M125 414q-94 0 -94 131q0 64 24 98t69 34q94 0 94 -134q0 -62 -24 -95.5t-69 -33.5zM124 454q24 0 34.5 21.5t10.5 68.5q0 49 -10.5 71t-33.5 22q-24 0 -34.5 -21.5t-10.5 -69.5q0 -49 10.5 -70.5t33.5 -21.5zM31 315v47h187v-47h-187z"/>
<glyph unicode="»" horiz-adv-x="377" d="M207 88v83l88 90l-88 89v82l135 -139v-69zM47 88v83l88 90l-88 89v82l135 -139v-69z"/>
<glyph unicode="¼" horiz-adv-x="728" d="M147 267v285h-87v40h16q42 0 59.5 16t18.5 55h48v-396h-55zM126 0l426 660h49l-425 -660h-50zM459 99v44l153 253h52v-251h40v-46h-40v-99h-52v99h-153zM511 145h101v168z"/>
<glyph unicode="½" horiz-adv-x="728" d="M147 267v285h-87v40h16q42 0 59.5 16t18.5 55h48v-396h-55zM126 0l426 660h49l-425 -660h-50zM462 7q0 56 21 91.5t80 80.5q43 32 57 53t14 53q0 67 -60 67q-61 0 -61 -78q0 -9 1 -16h-51q-1 8 -1 18q0 58 30 90t85 32q52 0 82 -31t30 -84q0 -40 -18 -68t-69 -68 q-44 -33 -62.5 -54.5t-22.5 -46.5h177v-46h-231q-1 3 -1 7z"/>
<glyph unicode="¾" horiz-adv-x="728" d="M149 262q-59 0 -89 32.5t-29 94.5h53q-1 -84 65 -84q31 0 49 21t18 56q0 37 -19 54t-59 17q-13 0 -23 -1v42q51 0 63 10q23 15 23 55q0 63 -56 63q-30 0 -42 -17.5t-13 -62.5h-52q1 52 15 77q26 46 95 46q50 0 79 -27.5t29 -74.5q0 -32 -11.5 -51t-40.5 -36 q37 -12 52 -33t15 -59q0 -56 -33 -89t-89 -33zM126 0l425 660h50l-425 -660h-50zM459 99v44l153 253h52v-251h40v-46h-40v-99h-52v99h-153zM511 145h101v168z"/>
<glyph unicode="¿" horiz-adv-x="402" d="M164 400v93h87v-93h-87zM32 -6q0 47 16 81t65 91q40 47 49 66t9 59q0 21 -1 39h74v-28q0 -54 -14 -86t-64 -92q-35 -43 -46 -67t-11 -59q0 -52 24.5 -81.5t67.5 -29.5q63 0 85 60q10 27 10 81h74q-1 -85 -25 -128q-44 -80 -146 -80q-76 0 -121.5 47.5t-45.5 126.5z"/>
<glyph unicode="À" horiz-adv-x="502" d="M208 753l-147 84h147l79 -84h-79zM5 0l192 667h101l198 -667h-85l-55 191h-218l-52 -191h-81zM157 258h181l-58 206q-16 57 -33 128q-18 -75 -33 -128z"/>
<glyph unicode="Á" horiz-adv-x="502" d="M217 753l79 84h147l-147 -84h-79zM5 0l192 667h101l198 -667h-85l-55 191h-218l-52 -191h-81zM157 258h181l-58 206q-16 57 -33 128q-18 -75 -33 -128z"/>
<glyph unicode="Â" horiz-adv-x="502" d="M119 753l81 84h93l82 -84h-80l-49 56l-49 -56h-78zM5 0l192 667h101l198 -667h-85l-55 191h-218l-52 -191h-81zM157 258h181l-58 206q-16 57 -33 128q-18 -75 -33 -128z"/>
<glyph unicode="Ã" horiz-adv-x="502" d="M117 749q15 90 85 90q26 0 87 -24q22 -8 36 -8q26 0 32 31h48q-8 -89 -83 -89q-26 0 -85 23q-23 9 -34 9q-28 0 -36 -32h-50zM5 0l192 667h101l198 -667h-85l-55 191h-218l-52 -191h-81zM157 258h181l-58 206q-16 57 -33 128q-18 -75 -33 -128z"/>
<glyph unicode="Ä" horiz-adv-x="502" d="M296 750v87h73v-87h-73zM139 750v87h73v-87h-73zM5 0l192 667h101l198 -667h-85l-55 191h-218l-52 -191h-81zM157 258h181l-58 206q-16 57 -33 128q-18 -75 -33 -128z"/>
<glyph unicode="Å" horiz-adv-x="502" d="M254 720q-32 0 -54.5 23t-22.5 54t22.5 53.5t53.5 22.5q32 0 54.5 -22.5t22.5 -54.5q0 -31 -22.5 -53.5t-53.5 -22.5zM254 759q16 0 27 11t11 27t-11 27t-27 11t-27 -11t-11 -27t11 -27t27 -11zM5 0l192 667h101l198 -667h-85l-55 191h-218l-52 -191h-81zM157 258h181 l-58 206q-16 57 -33 128q-18 -75 -33 -128z"/>
<glyph unicode="Æ" horiz-adv-x="736" d="M6 0l240 667h445v-70h-266v-214h259v-67h-259v-246h273v-70h-352v192h-191l-68 -192h-81zM180 262h166v335h-50z"/>
<glyph unicode="Ç" horiz-adv-x="481" d="M206 -75l29 64q-101 9 -146.5 92t-45.5 259q0 194 61 270q56 69 153 69q85 0 134 -54.5t54 -153.5h-77q-8 145 -114 145q-68 0 -100 -62.5t-32 -195.5q0 -165 30.5 -236t101.5 -71q118 0 121 191h77q-9 -242 -181 -253l-22 -45q13 4 23 4q27 0 44 -17t17 -45 q0 -33 -23 -54.5t-58 -21.5q-36 0 -74 21l10 30q30 -19 56 -19q16 0 26 11t10 28q0 16 -9.5 26.5t-24.5 10.5q-12 0 -27 -7z"/>
<glyph unicode="È" horiz-adv-x="468" d="M214 753l-147 84h147l79 -84h-79zM62 0v667h357v-70h-278v-214h267v-67h-267v-246h288v-70h-367z"/>
<glyph unicode="É" horiz-adv-x="468" d="M207 753l79 84h147l-147 -84h-79zM62 0v667h357v-70h-278v-214h267v-67h-267v-246h288v-70h-367z"/>
<glyph unicode="Ê" horiz-adv-x="468" d="M116 753l81 84h93l82 -84h-80l-49 56l-49 -56h-78zM62 0v667h357v-70h-278v-214h267v-67h-267v-246h288v-70h-367z"/>
<glyph unicode="Ë" horiz-adv-x="468" d="M286 750v87h73v-87h-73zM129 750v87h73v-87h-73zM62 0v667h357v-70h-278v-214h267v-67h-267v-246h288v-70h-367z"/>
<glyph unicode="Ì" horiz-adv-x="203" d="M65 753l-147 84h147l79 -84h-79zM62 0v667h79v-667h-79z"/>
<glyph unicode="Í" horiz-adv-x="203" d="M68 753l79 84h147l-147 -84h-79zM62 0v667h79v-667h-79z"/>
<glyph unicode="Î" horiz-adv-x="203" d="M-23 753l81 84h93l82 -84h-80l-49 56l-49 -56h-78zM62 0v667h79v-667h-79z"/>
<glyph unicode="Ï" horiz-adv-x="203" d="M124 750v87h73v-87h-73zM12 750v87h73v-87h-73zM62 0v667h79v-667h-79z"/>
<glyph unicode="Ð" horiz-adv-x="513" d="M63 0v316h-37v63h37v288h165q81 0 121 -14.5t67 -54.5q54 -83 54 -262q0 -207 -77 -286q-27 -27 -64 -38.5t-99 -11.5h-167zM141 63h69q64 0 93.5 11t47.5 41q41 66 41 220q0 76 -13 139t-34 91q-17 22 -42 30.5t-69 8.5h-93v-225h140v-63h-140v-253z"/>
<glyph unicode="Ñ" horiz-adv-x="519" d="M139 749q15 90 85 90q26 0 87 -24q22 -8 36 -8q26 0 32 31h48q-8 -89 -83 -89q-26 0 -85 23q-23 9 -34 9q-28 0 -36 -32h-50zM62 0v667h103l174 -438q34 -85 49 -132q-4 76 -4 148v422h73v-667h-100l-184 454q-21 50 -45 121q7 -75 7 -134v-441h-73z"/>
<glyph unicode="Ò" horiz-adv-x="510" d="M225 753l-147 84h147l79 -84h-79zM78 98q-35 76 -35 236q0 174 43 251q53 94 169 94q125 0 176 -109q35 -76 35 -240q0 -173 -43 -248q-53 -94 -168 -94q-125 0 -177 110zM255 55q70 0 101 64.5t31 211.5q0 152 -30.5 216.5t-101.5 64.5t-102 -64.5t-31 -213.5t31 -214 t102 -65z"/>
<glyph unicode="Ó" horiz-adv-x="510" d="M218 753l79 84h147l-147 -84h-79zM78 98q-35 76 -35 236q0 174 43 251q53 94 169 94q125 0 176 -109q35 -76 35 -240q0 -173 -43 -248q-53 -94 -168 -94q-125 0 -177 110zM255 55q70 0 101 64.5t31 211.5q0 152 -30.5 216.5t-101.5 64.5t-102 -64.5t-31 -213.5t31 -214 t102 -65z"/>
<glyph unicode="Ô" horiz-adv-x="510" d="M130 753l81 84h93l82 -84h-80l-49 56l-49 -56h-78zM78 98q-35 76 -35 236q0 174 43 251q53 94 169 94q125 0 176 -109q35 -76 35 -240q0 -173 -43 -248q-53 -94 -168 -94q-125 0 -177 110zM255 55q70 0 101 64.5t31 211.5q0 152 -30.5 216.5t-101.5 64.5t-102 -64.5 t-31 -213.5t31 -214t102 -65z"/>
<glyph unicode="Õ" horiz-adv-x="510" d="M131 749q15 90 85 90q26 0 87 -24q22 -8 36 -8q26 0 32 31h48q-8 -89 -83 -89q-26 0 -85 23q-23 9 -34 9q-28 0 -36 -32h-50zM78 98q-35 76 -35 236q0 174 43 251q53 94 169 94q125 0 176 -109q35 -76 35 -240q0 -173 -43 -248q-53 -94 -168 -94q-125 0 -177 110zM255 55 q70 0 101 64.5t31 211.5q0 152 -30.5 216.5t-101.5 64.5t-102 -64.5t-31 -213.5t31 -214t102 -65z"/>
<glyph unicode="Ö" horiz-adv-x="510" d="M300 750v87h73v-87h-73zM143 750v87h73v-87h-73zM78 98q-35 76 -35 236q0 174 43 251q53 94 169 94q125 0 176 -109q35 -76 35 -240q0 -173 -43 -248q-53 -94 -168 -94q-125 0 -177 110zM255 55q70 0 101 64.5t31 211.5q0 152 -30.5 216.5t-101.5 64.5t-102 -64.5 t-31 -213.5t31 -214t102 -65z"/>
<glyph unicode="×" d="M106 177l-38 38l118 118l-118 118l38 38l118 -118l117 118l38 -38l-118 -118l118 -118l-38 -38l-117 118z"/>
<glyph unicode="Ø" horiz-adv-x="510" d="M29 9l51 85q-37 77 -37 239q0 175 43 252q53 94 168 94q87 0 143 -57l38 63l45 -29l-50 -84q36 -78 36 -238q0 -175 -43 -252q-54 -94 -168 -94q-89 0 -143 57l-38 -63zM133 182l222 370q-31 60 -100 60q-71 0 -102 -65t-31 -214q0 -83 11 -151zM154 115q33 -60 100 -60 q71 0 102 64.5t31 212.5q0 99 -10 152z"/>
<glyph unicode="Ù" horiz-adv-x="508" d="M228 753l-147 84h147l79 -84h-79zM99 59q-37 51 -37 161v447h79v-454q0 -91 28 -123q29 -35 85 -35t85 35q28 32 28 123v454h79v-447q0 -110 -37 -161q-50 -71 -155 -71t-155 71z"/>
<glyph unicode="Ú" horiz-adv-x="508" d="M224 753l79 84h147l-147 -84h-79zM99 59q-37 51 -37 161v447h79v-454q0 -91 28 -123q29 -35 85 -35t85 35q28 32 28 123v454h79v-447q0 -110 -37 -161q-50 -71 -155 -71t-155 71z"/>
<glyph unicode="Û" horiz-adv-x="508" d="M133 753l81 84h93l82 -84h-80l-49 56l-49 -56h-78zM99 59q-37 51 -37 161v447h79v-454q0 -91 28 -123q29 -35 85 -35t85 35q28 32 28 123v454h79v-447q0 -110 -37 -161q-50 -71 -155 -71t-155 71z"/>
<glyph unicode="Ü" horiz-adv-x="508" d="M303 750v87h73v-87h-73zM146 750v87h73v-87h-73zM99 59q-37 51 -37 161v447h79v-454q0 -91 28 -123q29 -35 85 -35t85 35q28 32 28 123v454h79v-447q0 -110 -37 -161q-50 -71 -155 -71t-155 71z"/>
<glyph unicode="Ý" horiz-adv-x="449" d="M191 753l79 84h147l-147 -84h-79zM181 0v267l-181 400h88l94 -220l26 -63l11 -27l5 -12q13 35 42 102l96 220h87l-189 -400v-267h-79z"/>
<glyph unicode="Þ" horiz-adv-x="455" d="M62 0v667h79v-120h94q87 0 127 -33q64 -50 64 -160q0 -93 -46.5 -143t-133.5 -50h-105v-161h-79zM141 228h92q59 0 86.5 30.5t27.5 94.5t-27.5 94t-86.5 30h-92v-249z"/>
<glyph unicode="ß" horiz-adv-x="429" d="M54 0v431q0 79 6 116.5t23 64.5q38 62 126 62q72 0 112 -44t40 -122q0 -96 -71 -131q54 -22 77.5 -62.5t23.5 -110.5q0 -94 -45.5 -150.5t-121.5 -56.5q-14 0 -42 3v59q26 -2 27 -2q52 0 80.5 39.5t28.5 111.5q0 66 -30.5 101.5t-86.5 35.5q-11 0 -19 -1v54h11 q101 0 101 109q0 47 -23 75.5t-62 28.5q-45 0 -65 -32q-18 -29 -18 -150v-429h-72z"/>
<glyph unicode="à" horiz-adv-x="420" d="M196 540l-109 127h109l58 -127h-58zM34 127q0 73 49 108q28 21 114 42q59 14 74.5 27.5t15.5 50.5q0 47 -20.5 68t-65.5 21q-66 0 -80 -43q-5 -15 -5 -44h-67q0 75 37.5 110.5t116.5 35.5q75 0 115 -35q35 -32 35 -111v-231q0 -60 8 -69q7 -9 24 -9q5 0 12 1v-49 q-21 -3 -30 -3q-67 0 -81 65q-46 -72 -124 -72q-57 0 -92.5 38t-35.5 99zM107 132q0 -40 19 -61.5t53 -21.5q53 0 83 43q14 19 19 41t5 67v55q-21 -10 -70 -25q-62 -17 -80 -30q-29 -22 -29 -68z"/>
<glyph unicode="á" horiz-adv-x="420" d="M180 540l58 127h109l-109 -127h-58zM34 127q0 73 49 108q28 21 114 42q59 14 74.5 27.5t15.5 50.5q0 47 -20.5 68t-65.5 21q-66 0 -80 -43q-5 -15 -5 -44h-67q0 75 37.5 110.5t116.5 35.5q75 0 115 -35q35 -32 35 -111v-231q0 -60 8 -69q7 -9 24 -9q5 0 12 1v-49 q-21 -3 -30 -3q-67 0 -81 65q-46 -72 -124 -72q-57 0 -92.5 38t-35.5 99zM107 132q0 -40 19 -61.5t53 -21.5q53 0 83 43q14 19 19 41t5 67v55q-21 -10 -70 -25q-62 -17 -80 -30q-29 -22 -29 -68z"/>
<glyph unicode="â" horiz-adv-x="420" d="M92 540l91 127h73l92 -127h-73l-56 85l-52 -85h-75zM34 127q0 73 49 108q28 21 114 42q59 14 74.5 27.5t15.5 50.5q0 47 -20.5 68t-65.5 21q-66 0 -80 -43q-5 -15 -5 -44h-67q0 75 37.5 110.5t116.5 35.5q75 0 115 -35q35 -32 35 -111v-231q0 -60 8 -69q7 -9 24 -9 q5 0 12 1v-49q-21 -3 -30 -3q-67 0 -81 65q-46 -72 -124 -72q-57 0 -92.5 38t-35.5 99zM107 132q0 -40 19 -61.5t53 -21.5q53 0 83 43q14 19 19 41t5 67v55q-21 -10 -70 -25q-62 -17 -80 -30q-29 -22 -29 -68z"/>
<glyph unicode="ã" horiz-adv-x="420" d="M79 559q15 90 85 90q23 0 87 -24q24 -8 36 -8q26 0 32 31h48q-8 -89 -83 -89q-26 0 -85 23q-23 9 -34 9q-28 0 -36 -32h-50zM34 127q0 73 49 108q28 21 114 42q59 14 74.5 27.5t15.5 50.5q0 47 -20.5 68t-65.5 21q-66 0 -80 -43q-5 -15 -5 -44h-67q0 75 37.5 110.5 t116.5 35.5q75 0 115 -35q35 -32 35 -111v-231q0 -60 8 -69q7 -9 24 -9q5 0 12 1v-49q-21 -3 -30 -3q-67 0 -81 65q-46 -72 -124 -72q-57 0 -92.5 38t-35.5 99zM107 132q0 -40 19 -61.5t53 -21.5q53 0 83 43q14 19 19 41t5 67v55q-21 -10 -70 -25q-62 -17 -80 -30 q-29 -22 -29 -68z"/>
<glyph unicode="ä" horiz-adv-x="420" d="M265 577v90h71v-90h-71zM105 577v90h72v-90h-72zM34 127q0 73 49 108q28 21 114 42q59 14 74.5 27.5t15.5 50.5q0 47 -20.5 68t-65.5 21q-66 0 -80 -43q-5 -15 -5 -44h-67q0 75 37.5 110.5t116.5 35.5q75 0 115 -35q35 -32 35 -111v-231q0 -60 8 -69q7 -9 24 -9q5 0 12 1 v-49q-21 -3 -30 -3q-67 0 -81 65q-46 -72 -124 -72q-57 0 -92.5 38t-35.5 99zM107 132q0 -40 19 -61.5t53 -21.5q53 0 83 43q14 19 19 41t5 67v55q-21 -10 -70 -25q-62 -17 -80 -30q-29 -22 -29 -68z"/>
<glyph unicode="å" horiz-adv-x="420" d="M214 544q-32 0 -54.5 23t-22.5 54t22.5 53.5t53.5 22.5q32 0 54.5 -22.5t22.5 -54.5q0 -31 -22.5 -53.5t-53.5 -22.5zM214 583q16 0 27 11t11 27t-11 27t-27 11t-27 -11t-11 -27t11 -27t27 -11zM34 127q0 73 49 108q28 21 114 42q59 14 74.5 27.5t15.5 50.5 q0 47 -20.5 68t-65.5 21q-66 0 -80 -43q-5 -15 -5 -44h-67q0 75 37.5 110.5t116.5 35.5q75 0 115 -35q35 -32 35 -111v-231q0 -60 8 -69q7 -9 24 -9q5 0 12 1v-49q-21 -3 -30 -3q-67 0 -81 65q-46 -72 -124 -72q-57 0 -92.5 38t-35.5 99zM107 132q0 -40 19 -61.5t53 -21.5 q53 0 83 43q14 19 19 41t5 67v55q-21 -10 -70 -25q-62 -17 -80 -30q-29 -22 -29 -68z"/>
<glyph unicode="æ" horiz-adv-x="607" d="M34 130q0 87 66 128q14 8 29 13t84 22q29 7 38.5 17.5t9.5 37.5q0 50 -17.5 73t-55.5 23q-35 0 -56 -21.5t-24 -60.5h-67q4 60 30 90q42 51 119 51t118 -51q44 51 109 51q34 0 67 -17t51 -44q37 -53 37 -156q0 -22 -1 -39h-237q1 -108 7 -134q7 -28 29 -46t50 -18 q74 0 80 116h71q-9 -75 -35 -112q-44 -63 -124 -63q-86 0 -128 89q-19 -44 -45 -62q-38 -27 -83 -27q-55 0 -88.5 39t-33.5 101zM334 302h165v4v17q0 122 -84 122q-44 0 -65 -37q-13 -24 -15 -84q0 -12 -1 -22zM101 129q0 -36 19 -58t50 -22q38 0 62 26t28 73q1 8 1 99 l-20 -7q-4 -1 -13 -4l-18 -6l-18 -4q-48 -13 -67 -33q-24 -25 -24 -64z"/>
<glyph unicode="ç" horiz-adv-x="385" d="M158 -74l30 65q-81 10 -117 72t-36 190q0 127 43 188.5t131 61.5q72 0 111 -42t42 -122h-68q-3 106 -86 106q-54 0 -77 -45t-23 -149q0 -109 23 -155.5t77 -46.5q45 0 66 30.5t22 97.5l70 -1q0 -83 -37 -131t-105 -54l-23 -47q13 4 23 4q26 0 43 -17t17 -45 q0 -33 -23 -54.5t-58 -21.5t-73 21l10 30q29 -19 55 -19q16 0 26 11t10 28q0 16 -9.5 26.5t-23.5 10.5q-12 0 -27 -7z"/>
<glyph unicode="è" horiz-adv-x="395" d="M176 540l-109 127h109l58 -127h-58zM202 -10q-85 0 -126 64.5t-41 199.5q0 119 37 180q42 69 127 69q76 0 118 -59.5t42 -168.5q0 -18 -1 -32h-251q0 -101 23.5 -147.5t73.5 -46.5q80 0 86 116h66q-3 -83 -43.5 -129t-110.5 -46zM108 298h178q0 146 -87 146 q-88 0 -91 -146z"/>
<glyph unicode="é" horiz-adv-x="395" d="M177 540l58 127h109l-109 -127h-58zM202 -10q-85 0 -126 64.5t-41 199.5q0 119 37 180q42 69 127 69q76 0 118 -59.5t42 -168.5q0 -18 -1 -32h-251q0 -101 23.5 -147.5t73.5 -46.5q80 0 86 116h66q-3 -83 -43.5 -129t-110.5 -46zM108 298h178q0 146 -87 146 q-88 0 -91 -146z"/>
<glyph unicode="ê" horiz-adv-x="395" d="M76 540l91 127h73l92 -127h-73l-56 85l-52 -85h-75zM202 -10q-85 0 -126 64.5t-41 199.5q0 119 37 180q42 69 127 69q76 0 118 -59.5t42 -168.5q0 -18 -1 -32h-251q0 -101 23.5 -147.5t73.5 -46.5q80 0 86 116h66q-3 -83 -43.5 -129t-110.5 -46zM108 298h178 q0 146 -87 146q-88 0 -91 -146z"/>
<glyph unicode="ë" horiz-adv-x="395" d="M245 577v90h71v-90h-71zM85 577v90h72v-90h-72zM202 -10q-85 0 -126 64.5t-41 199.5q0 119 37 180q42 69 127 69q76 0 118 -59.5t42 -168.5q0 -18 -1 -32h-251q0 -101 23.5 -147.5t73.5 -46.5q80 0 86 116h66q-3 -83 -43.5 -129t-110.5 -46zM108 298h178q0 146 -87 146 q-88 0 -91 -146z"/>
<glyph unicode="ì" horiz-adv-x="180" d="M66 540l-109 127h109l58 -127h-58zM54 0v493h72v-493h-72z"/>
<glyph unicode="í" horiz-adv-x="180" d="M63 540l58 127h109l-109 -127h-58zM54 0v493h72v-493h-72z"/>
<glyph unicode="î" horiz-adv-x="180" d="M-35 540l91 127h73l92 -127h-73l-56 85l-52 -85h-75zM54 0v493h72v-493h-72z"/>
<glyph unicode="ï" horiz-adv-x="180" d="M111 577v90h68v-90h-68zM8 577v90h69v-90h-69zM54 0v493h72v-493h-72z"/>
<glyph unicode="ð" horiz-adv-x="407" d="M203 -10q-168 0 -168 257q0 256 167 256q17 0 37 -4q-26 43 -49 73l-61 -53l-32 36l62 54q-19 20 -39 38l46 45q29 -29 40 -42l57 49l32 -36l-57 -50q71 -86 102 -172t31 -193q0 -258 -168 -258zM203 49q50 0 72.5 46.5t22.5 148.5q0 106 -22.5 153.5t-72.5 47.5 t-72.5 -47t-22.5 -151t22.5 -151t72.5 -47z"/>
<glyph unicode="ñ" horiz-adv-x="418" d="M92 559q15 90 85 90q23 0 87 -24q24 -8 36 -8q26 0 32 31h48q-8 -89 -83 -89q-26 0 -85 23q-22 9 -34 9q-28 0 -36 -32h-50zM54 0v493h67v-56q48 63 120 63q62 0 94 -40q17 -21 23 -47t6 -79v-334h-72v319q0 47 -3 65.5t-14 32.5q-18 24 -54 24q-48 0 -74 -37 q-21 -29 -21 -99v-305h-72z"/>
<glyph unicode="ò" horiz-adv-x="407" d="M179 540l-109 127h109l58 -127h-58zM203 -10q-168 0 -168 257q0 256 168 256t168 -261q0 -123 -43 -187.5t-125 -64.5zM203 49q50 0 72.5 46.5t22.5 148.5q0 106 -22.5 153t-72.5 47t-72.5 -46.5t-22.5 -150.5t22.5 -151t72.5 -47z"/>
<glyph unicode="ó" horiz-adv-x="407" d="M176 540l58 127h109l-109 -127h-58zM203 -10q-168 0 -168 257q0 256 168 256t168 -261q0 -123 -43 -187.5t-125 -64.5zM203 49q50 0 72.5 46.5t22.5 148.5q0 106 -22.5 153t-72.5 47t-72.5 -46.5t-22.5 -150.5t22.5 -151t72.5 -47z"/>
<glyph unicode="ô" horiz-adv-x="407" d="M78 540l91 127h73l92 -127h-73l-56 85l-52 -85h-75zM203 -10q-168 0 -168 257q0 256 168 256t168 -261q0 -123 -43 -187.5t-125 -64.5zM203 49q50 0 72.5 46.5t22.5 148.5q0 106 -22.5 153t-72.5 47t-72.5 -46.5t-22.5 -150.5t22.5 -151t72.5 -47z"/>
<glyph unicode="õ" horiz-adv-x="407" d="M76 559q15 90 85 90q23 0 87 -24q24 -8 36 -8q26 0 32 31h48q-8 -89 -83 -89q-26 0 -85 23q-22 9 -34 9q-28 0 -36 -32h-50zM203 -10q-168 0 -168 257q0 256 168 256t168 -261q0 -123 -43 -187.5t-125 -64.5zM203 49q50 0 72.5 46.5t22.5 148.5q0 106 -22.5 153t-72.5 47 t-72.5 -46.5t-22.5 -150.5t22.5 -151t72.5 -47z"/>
<glyph unicode="ö" horiz-adv-x="407" d="M251 577v90h71v-90h-71zM91 577v90h72v-90h-72zM203 -10q-168 0 -168 257q0 256 168 256t168 -261q0 -123 -43 -187.5t-125 -64.5zM203 49q50 0 72.5 46.5t22.5 148.5q0 106 -22.5 153t-72.5 47t-72.5 -46.5t-22.5 -150.5t22.5 -151t72.5 -47z"/>
<glyph unicode="÷" d="M181 423v90h85v-90h-85zM41 308v53h365v-53h-365zM181 157v90h85v-90h-85z"/>
<glyph unicode="ø" horiz-adv-x="406" d="M16 5l48 74q-29 62 -29 168q0 256 168 256q65 0 109 -43l39 60l40 -26l-50 -77q30 -64 30 -171q0 -256 -167 -256q-69 0 -111 45l-37 -57zM114 155l160 246q-24 43 -71 43q-50 0 -72.5 -46.5t-22.5 -150.5q0 -45 6 -92zM131 94q24 -45 72 -45q50 0 72.5 47t22.5 153 q0 49 -6 93z"/>
<glyph unicode="ù" horiz-adv-x="418" d="M188 540l-109 127h109l58 -127h-58zM83 33q-17 21 -23 47t-6 79v334h72v-319q0 -47 3 -65.5t14 -32.5q18 -24 54 -24q48 0 74 37q21 29 21 99v305h72v-493h-67v56q-48 -63 -120 -63q-62 0 -94 40z"/>
<glyph unicode="ú" horiz-adv-x="418" d="M186 540l58 127h109l-109 -127h-58zM83 33q-17 21 -23 47t-6 79v334h72v-319q0 -47 3 -65.5t14 -32.5q18 -24 54 -24q48 0 74 37q21 29 21 99v305h72v-493h-67v56q-48 -63 -120 -63q-62 0 -94 40z"/>
<glyph unicode="û" horiz-adv-x="418" d="M84 540l91 127h73l92 -127h-73l-56 85l-52 -85h-75zM83 33q-17 21 -23 47t-6 79v334h72v-319q0 -47 3 -65.5t14 -32.5q18 -24 54 -24q48 0 74 37q21 29 21 99v305h72v-493h-67v56q-48 -63 -120 -63q-62 0 -94 40z"/>
<glyph unicode="ü" horiz-adv-x="418" d="M260 577v90h71v-90h-71zM100 577v90h72v-90h-72zM83 33q-17 21 -23 47t-6 79v334h72v-319q0 -47 3 -65.5t14 -32.5q18 -24 54 -24q48 0 74 37q21 29 21 99v305h72v-493h-67v56q-48 -63 -120 -63q-62 0 -94 40z"/>
<glyph unicode="ý" horiz-adv-x="386" d="M173 540l58 127h109l-109 -127h-58zM33 -94q24 -7 45 -7q56 0 74 78l5 23l-160 493h81l79 -269q15 -51 39 -145q30 123 37 146l79 268h78l-167 -522q-25 -77 -53.5 -104t-84.5 -27q-31 0 -52 6v60z"/>
<glyph unicode="þ" horiz-adv-x="421" d="M126 46v-206h-72v827h72v-219q42 55 105 55q76 0 115 -65t39 -190q0 -124 -40 -189.5t-116 -65.5q-60 0 -103 53zM217 52q95 0 95 194q0 103 -23 151t-73 48q-49 0 -72 -48t-23 -149t23.5 -148.5t72.5 -47.5z"/>
<glyph unicode="ÿ" horiz-adv-x="386" d="M241 577v90h71v-90h-71zM81 577v90h72v-90h-72zM33 -94q24 -7 45 -7q56 0 74 78l5 23l-160 493h81l79 -269q15 -51 39 -145q30 123 37 146l79 268h78l-167 -522q-25 -77 -53.5 -104t-84.5 -27q-31 0 -52 6v60z"/>
<glyph unicode="Œ" horiz-adv-x="765" d="M247 -12q-204 0 -204 348q0 166 50 254.5t145 88.5q59 0 102 -35q17 -13 45 -47v70h325v-70h-247v-214h247v-67h-247v-246h263v-70h-341v70q-39 -82 -138 -82zM155 122q15 -31 43 -49t60 -18q33 0 60.5 17.5t41.5 47.5q25 53 25 195q0 103 -5.5 151t-19.5 81 q-13 30 -41.5 47.5t-63.5 17.5q-69 0 -101 -66t-32 -208q0 -147 33 -216z"/>
<glyph unicode="œ" horiz-adv-x="659" d="M203 -10q-168 0 -168 257q0 256 168 256q85 0 131 -73q43 73 129 73q77 0 118.5 -59.5t41.5 -169.5q0 -17 -1 -31h-251q0 -101 23.5 -147.5t73.5 -46.5q80 0 86 116h66q-3 -82 -43.5 -128.5t-109.5 -46.5q-92 0 -133 74q-44 -74 -131 -74zM372 298h178q0 146 -87 146 q-88 0 -91 -146zM203 49q50 0 72.5 46.5t22.5 148.5q0 106 -22.5 153t-72.5 47t-72.5 -46.5t-22.5 -150.5t22.5 -151t72.5 -47z"/>
<glyph unicode="Ÿ" horiz-adv-x="449" d="M270 750v87h73v-87h-73zM113 750v87h73v-87h-73zM181 0v267l-181 400h88l94 -220l26 -63l11 -27l5 -12q13 35 42 102l96 220h87l-189 -400v-267h-79z"/>
<glyph unicode="ˆ" horiz-adv-x="500" d="M122 540l91 127h73l92 -127h-73l-56 85l-52 -85h-75z"/>
<glyph unicode="˜" horiz-adv-x="500" d="M106 559q15 90 85 90q23 0 87 -24q24 -8 36 -8q26 0 32 31h48q-8 -89 -83 -89q-26 0 -85 23q-22 9 -34 9q-28 0 -36 -32h-50z"/>
<glyph unicode=" " horiz-adv-x="436"/>
<glyph unicode=" " horiz-adv-x="873"/>
<glyph unicode=" " horiz-adv-x="436"/>
<glyph unicode=" " horiz-adv-x="873"/>
<glyph unicode=" " horiz-adv-x="291"/>
<glyph unicode=" " horiz-adv-x="218"/>
<glyph unicode=" " horiz-adv-x="145"/>
<glyph unicode=" " horiz-adv-x="145"/>
<glyph unicode=" " horiz-adv-x="109"/>
<glyph unicode=" " horiz-adv-x="174"/>
<glyph unicode=" " horiz-adv-x="48"/>
<glyph unicode="‐" horiz-adv-x="187" d="M0 225v70h187v-70h-187z"/>
<glyph unicode="‑" horiz-adv-x="187" d="M0 225v70h187v-70h-187z"/>
<glyph unicode="–" d="M43 225v70h361v-70h-361z"/>
<glyph unicode="—" horiz-adv-x="547" d="M0 225v70h547v-70h-547z"/>
<glyph unicode="‘" horiz-adv-x="199" d="M53 444v90q0 119 92 145v-49q-42 -18 -41 -89h41v-97h-92z"/>
<glyph unicode="’" horiz-adv-x="199" d="M53 432v49q42 20 41 89h-41v97h92v-90q0 -117 -92 -145z"/>
<glyph unicode="‚" horiz-adv-x="199" d="M53 0v97h92v-90q0 -117 -92 -145v49q42 20 41 89h-41z"/>
<glyph unicode="“" horiz-adv-x="355" d="M210 444v90q0 119 92 145v-49q-42 -18 -41 -89h41v-97h-92zM53 444v90q0 119 92 145v-49q-42 -18 -41 -89h41v-97h-92z"/>
<glyph unicode="”" horiz-adv-x="355" d="M210 432v49q42 20 41 89h-41v97h92v-90q0 -117 -92 -145zM53 432v49q42 20 41 89h-41v97h92v-90q0 -117 -92 -145z"/>
<glyph unicode="„" horiz-adv-x="355" d="M210 0v97h92v-90q0 -117 -92 -145v49q42 20 41 89h-41zM53 0v97h92v-90q0 -117 -92 -145v49q42 20 41 89h-41z"/>
<glyph unicode="•" horiz-adv-x="667" d="M335 200q-57 0 -98 40.5t-41 97.5q0 58 41 98.5t100 40.5q55 0 95.5 -41t40.5 -97q0 -58 -40.5 -98.5t-97.5 -40.5z"/>
<glyph unicode="…" horiz-adv-x="576" d="M434 0v97h92v-97h-92zM242 0v97h92v-97h-92zM50 0v97h92v-97h-92z"/>
<glyph unicode=" " horiz-adv-x="174"/>
<glyph unicode="‹" horiz-adv-x="217" d="M170 88l-135 136v69l135 139v-82l-88 -89l88 -90v-83z"/>
<glyph unicode="›" horiz-adv-x="217" d="M47 88v83l88 90l-88 89v82l135 -139v-69z"/>
<glyph unicode=" " horiz-adv-x="218"/>
<glyph unicode="€" horiz-adv-x="557" d="M41 270l15 42h51v27v15h-66l15 42h52q7 112 36 175q23 52 69 80t107 28q86 0 135 -54t53 -154h-76q-8 145 -115 145q-87 0 -116 -106q-12 -45 -15 -114h199l-15 -42h-185q0 -13 1 -42h170l-15 -42h-153q7 -115 38 -167t92 -52q118 0 121 191h77q-12 -254 -200 -254 q-98 0 -148.5 68.5t-58.5 213.5h-68z"/>
<glyph unicode="™" horiz-adv-x="640" d="M285 287v380h76l66 -235l7 -26q6 -20 10 -40l16 64l65 237h75v-380h-49v246q0 10 1 52l-15 -53l-71 -245h-45l-74 251q-1 5 -5 17t-5 17l-4 15l1 -54v-246h-49zM104 287v336h-97v44h246v-44h-97v-336h-52z"/>
</font>
</defs>
</svg>
